Quick Browse
Movies
TV shows
Music
Games
Applications
Anime
Other

Latest Articles

Friends
Torrents.me
Torrent Download
Free Movies
1337x
RARBG
Torrent Downloads

Tumhari Sulu 2017 720p Esub HD Hindi GOPISAHI


    Seeders : 0      Leechers : 0

Hash :C61B5880C401A1D211393B6D7542CD225E7742B6
Added :6 days ago in Movies - Movies
Size :557.53 MB
Stream :Watch Online Full Movie @ Movie4u
Share :


Tumhari Sulu 2017 720p Esub HD Hindi GOPISAHI
Download Direct And Anonymously







Warning! Do not Download Torrents Without a VPN!
Your IP Address is .   And Location is
Your Internet Provider and Government can track your torrent Activity!  Hide your IP ADDRESS with a VPN!
We Strongly Recommend Using SpyOFF Torrent VPN to Anonymize your Torrenting. It's FREE for 15 Days!

Note :

Please Update (Trackers Info) Before Downloading Torrents to See Updated Seeders And Leechers for Batter Download Speed.

Trackers List

Tracker NameLast CheckStatusSeedersLeechers




Torrent File Content (1 file)


     Tumhari Sulu 2017 720p Esub HD Hindi GOPISAHI.mkv -
557.53 MB



Description



Movies : Drama : HD 720p : Hindi
Loading... (function(){ var D=new Date(),d=document,b='body',ce='createElement',ac='appendChild',st='style',ds='display',n='none',gi='getElementById'; var i=d[ce]('iframe');i[st][ds]=n;d[gi]("M244525ScriptRootC122102")[ac](i);try{var iw=i.contentWindow.document;iw.open();iw.writeln("");iw.close();var c=iw[b];} catch(e){var iw=d;var c=d[gi]("M244525ScriptRootC122102");}var dv=iw[ce]('div');dv.id="MG_ID";dv[st][ds]=n;dv.innerHTML=122102;c[ac](dv); var s=iw[ce]('script');s.async='async';s.defer='defer';s.charset='utf-8';s.src="//jsc.adskeeper.co.uk/d/e/demonoid.pw.122102.js?t="+D.getYear()+D.getMonth()+D.getDate()+D.getHours();c[ac](s);})();

Format : Matroska
Format version : Version 4 / Version 2
File size : 558 MiB
Duration : 2 h 14 min
Overall bit rate : 580 kb/s
Movie name : Tumhari Sulu 2017 GOPISAHI

Video
Format : AVC
Codec ID : V_MPEG4/ISO/AVC
Duration : 2 h 14 min
Bit rate : 500 kb/s
Width : 1 280 pixels
Height : 720 pixels
Display aspect ratio : 16:9
Frame rate mode : Constant
Frame rate : 25.000 FPS
Stream size : 481 MiB (86%)
Writing library : x264
Language : Hindi

Audio
Format : AAC
Duration : 2 h 14 min
Bit rate : 77.3 kb/s
Channel(s) : 6 channels
Channel positions : Front: L C R, Side: L R, LFE
Sampling rate : 44.1 kHz
Frame rate : 43.066 FPS (1024 SPF)
Stream size : 74.4 MiB (13%)
Language : Hindi

Text
Language : English


Show Demonoid some love with BitCoin: 1DNoid2VRyfYn9T38Z1SZ5XncG7WMgCeUL How to get BitCoin?

Facebook Twitter Google Digg Reddit LinkedIn StumbleUpon Email

Related torrents

Torrent NameAddedSizeSeedLeechHealth
7 days ago - in Movies506.68 MB120
Last Month - in Movies518.69 MB8522
Verified torrent
Last Month - in Movies885.59 MB536
Verified torrent
6 days ago - in Movies1.25 GB277
Verified torrent
3 months ago - in Movies758.69 MB146
Last Month - in Movies607.27 MB336

Note :

Feel free to post any comments about this torrent, including links to Subtitle, samples, screenshots, or any other relevant information. Please Dont Download anything from Comments, And Dont Post Links to Streaming Sites like Fmovies, Xmovies8, 123Movies, GoMovies, CMovieshd, Solarmovie, Watchfree, Putlockers, GoStream, m4ufree etc.

Comments (0 Comments)




Please login or create a FREE account to post comments

Latest Searches

| 77 Z | dj drama ft t i | SODOMY GAPING ENEMA | wanted salman | Kraftwerk minimum maximun | kina kai givemepink | baby gringo and rasta | teen russ | losing lila | beauty4k lady bug |